Notifications
Clear all

The proper stream could not be found - yet it plays just fine  

   RSS

0

Originally posted in the vegas forum... https://www.vegascreativesoftware.info/us/forum/the-proper-stream-could-not-be-found-yet-it-plays-just-fine--125317/

Never seen this before and I've been using MagicYUV for quite some time. Most often without audio but several with, too.

The project loads and all the media play without a problem but every time I open the project I get this message. Every single time. No matter what changes I make.

Ring any bells for anyone? VP 17-452

Since I can't upload images here I'll try to link to the Vegas forum content

https://www.vegascreativesoftware.info/download/file/mediacenter/l2adhc58saef/DMGl0X04GLXDXnM3WRMDl03RooDGiI4D/dyn/?width=200&height=200

 

General
Complete name : E:\Vegas Projects (e)\OLLI - Ann Karson Apartheid\Ann Karson Apartheid Merge.avi
Format : AVI
Format/Info : Audio Video Interleave
Format profile : OpenDML
File size : 105 GiB
Duration : 21 min 6 s
Overall bit rate : 715 Mb/s

Video
ID : 0
Format : M8Y0
Codec ID : M8Y0
Duration : 21 min 6 s
Bit rate : 713 Mb/s
Width : 3 840 pixels
Height : 2 160 pixels
Display aspect ratio : 16:9
Frame rate : 23.976 (24000/1001) FPS
Bits/(Pixel*Frame) : 3.587
Stream size : 105 GiB (100%)

Audio
ID : 1
Format : PCM
Format settings : Little / Signed
Codec ID : 00000001-0000-0010-8000-00AA00389B71
Duration : 21 min 6 s
Bit rate mode : Constant
Bit rate : 1 536 kb/s
Channel(s) : 2 channels
Sampling rate : 48.0 kHz
Bit depth : 16 bits
Stream size : 232 MiB (0%)
Alignment : Aligned on interleaves
Interleave, duration : 999 ms (23.96 video frames)
Interleave, preload duration : 1000 ms